FLACMOR » Rock / Metal » Mike Campbell & The Dirty Knobs - External Combustion (2022)

Mike Campbell & The Dirty Knobs - External Combustion (2022) FLAC скачать торрент

  • Название: External Combustion
  • Категория: Rock / Metal
  • Год выхода: 2022
  • Длительность: 44:45
  • Стиль: Rock
  • Аудиоформат: FLAC
  • Носитель/источник записи: [CD]
  • Тип рипа: tracks+.cue
  • Регион: США
  • Сканы: нет
  • Размер: 305.3 MB

Содержимое раздачи:
01. Wicked Mind (03:54)
02. Brigitte Bardot (03:23)
03. Cheap Talk (04:38)
04. External Combustion (04:11)
05. Dirty Job (feat. Ian Hunter) (04:12)
06. State Of Mind (feat. Margo Price) (04:18)
07. Lightning Boogie (03:59)
08. Rat City (04:01)
09. In This Lifetime (03:36)
10. It Is Written (03:52)
11. Electric Gypsy (04:35)
Содержание индексной карты (.CUE)
REM GENRE Rock
REM DATE 2022
REM DISCID 7E0A7F0B
REM COMMENT "ExactAudioCopy v1.6"
PERFORMER "Mike Campbell & The Dirty Knobs"
TITLE "External Combustion"
REM COMPOSER ""
FILE "01 - Wicked Mind.wav" WAVE
TRACK 01 AUDIO
TITLE "Wicked Mind"
PERFORMER "Mike Campbell & The Dirty Knobs"
REM COMPOSER ""
ISRC QMRSZ2102749
INDEX 01 00:00:00
FILE "02 - Brigitte Bardot.wav" WAVE
TRACK 02 AUDIO
TITLE "Brigitte Bardot"
PERFORMER "Mike Campbell & The Dirty Knobs"
REM COMPOSER ""
ISRC QMRSZ2102750
INDEX 01 00:00:00
FILE "03 - Cheap Talk.wav" WAVE
TRACK 03 AUDIO
TITLE "Cheap Talk"
PERFORMER "Mike Campbell & The Dirty Knobs"
REM COMPOSER ""
ISRC QMRSZ2102751
INDEX 01 00:00:00
FILE "04 - External Combustion.wav" WAVE
TRACK 04 AUDIO
TITLE "External Combustion"
PERFORMER "Mike Campbell & The Dirty Knobs"
REM COMPOSER ""
ISRC QMRSZ2102752
INDEX 01 00:00:00
FILE "05 - Dirty Job (feat. Ian Hunter).wav" WAVE
TRACK 05 AUDIO
TITLE "Dirty Job (feat. Ian Hunter)"
PERFORMER "Mike Campbell & The Dirty Knobs"
REM COMPOSER ""
ISRC QMRSZ2102753
INDEX 01 00:00:00
FILE "06 - State Of Mind (feat. Margo Price).wav" WAVE
TRACK 06 AUDIO
TITLE "State Of Mind (feat. Margo Price)"
PERFORMER "Mike Campbell & The Dirty Knobs"
REM COMPOSER ""
ISRC QMRSZ2102754
INDEX 01 00:00:00
FILE "07 - Lightning Boogie.wav" WAVE
TRACK 07 AUDIO
TITLE "Lightning Boogie"
PERFORMER "Mike Campbell & The Dirty Knobs"
REM COMPOSER ""
ISRC QMRSZ2102755
INDEX 01 00:00:00
FILE "08 - Rat City.wav" WAVE
TRACK 08 AUDIO
TITLE "Rat City"
PERFORMER "Mike Campbell & The Dirty Knobs"
REM COMPOSER ""
ISRC QMRSZ2102756
INDEX 01 00:00:00
FILE "09 - In This Lifetime.wav" WAVE
TRACK 09 AUDIO
TITLE "In This Lifetime"
PERFORMER "Mike Campbell & The Dirty Knobs"
REM COMPOSER ""
ISRC QMRSZ2102757
INDEX 01 00:00:00
FILE "10 - It Is Written.wav" WAVE
TRACK 10 AUDIO
TITLE "It Is Written"
PERFORMER "Mike Campbell & The Dirty Knobs"
REM COMPOSER ""
ISRC QMRSZ2102758
INDEX 01 00:00:00
FILE "11 - Electric Gypsy.wav" WAVE
TRACK 11 AUDIO
TITLE "Electric Gypsy"
PERFORMER "Mike Campbell & The Dirty Knobs"
REM COMPOSER ""
ISRC QMRSZ2102759
INDEX 01 00:00:00

Ссылка на скачивание "Mike Campbell & The Dirty Knobs - External Combustion"

Описание раздачи

Скачать lossless FLAC (tracks+.cue) External Combustion исполнителя Mike Campbell & The Dirty Knobs с помощью торрента. External Combustion — альбом американской группы Mike Campbell & The Dirty Knobs, выпущенный в 2022 году. Стиль альбома характеризуется как Rock, но он также демонстрирует влияние других жанров. Источником записи данной раздачи External Combustion является [CD].
Оставьте свой комментарий
  • Пользователи сайта
Информация
Посетители, находящиеся в группе Гости, не могут оставлять комментарии к данной публикации.
лучший сайт где можно скачать шаблоны для dle 11.3 бесплатно